Ffmpeg Buffer Size
This fork intents to support SMPTE ST 2110 for the broadcast industry where the SDI-to-IP transition is in progress and where fully virtualized solutions are being evaluated. AV_FRAME_DATA_A53_CC : ATSC A53 Part 4 Closed Captions. + * Zero if unknown or unspecified. Install the latest available version of the chromium-codecs-ffmpeg-extra package by running the command in the console. mp4 -i audio1. BTW, I found three FFMPEG bugs related to this issue: #258, #257, and #285. I have noticed that different versions of ffmpeg will. Below is a part of the source code. Niklesh did work to add support on both the encode and decode side for text formatting capabilities, such as font size/colour and effects like bold/italics, highlighting, etc. [欧美] [沙丘/星际奇兵]Dune. Note: You need ffmpeg installed in your machine in order to use AudioSegment. All the numerical options, if not specified otherwise, accept a string representing a number as input, which may be followed by one of the SI unit prefixes, for example: 'K. configuration for monitor 16: source type: ffmpeg source path: rtsp://192. ffmpeg [global_options] {[input_file_options] -i input_file} … {[output_file_options] output_file} …2 Description. I'm not sure if Mesa's VAAPI exposes this. dll a DLL (Dynamic Link Library) file which is referred to essential system files of the Windows OS. I've experienced an issue when reading from udp-mpegts. If you're "trying to allocate an array 64 bytes in size", you may consider uint8_t Buffer[64]; instead of uint8_t *Buffer[64]; (the. swf to the. FFmpeg-Nodejs. YUV is actually the name of the color space that is common to all "YUV" pixel formats. The best command line collection on the internet, submit yours and save your favorites. tif) dtm_file : C:\DemGlobalFMV\N41W105. Setting this value too low can degrade performance. 000000, bitrate: 1591842 kb/s Stream #0:0: Video: r210 (r210 / 0x30313272), rgb48le(10 bpc), 1920x1080, 23. Ported from FFmpeg 4. I also tried other formats and. ffmpeg: Either both buffer size and max rate or neither must be specified #1374. To configure the buffer size, include the. Installed from RPM is /usr/bin/ffmpeg but seems you do not have it installed. FFmpeg Commands for Video, Audio and Image Conversion in Linux. * * @param dst destination buffer * @param src source string * @param size size of destination buffer * @return the length of src */ size_t av_strlcpy(char *dst, const char *src, size_t size); /** * Append the string src to the string dst, but to a total length of * no more than size - 1 bytes, and null terminate dst. qsize()), (10, 30), cv2. This occurs iff: 1) ffserver has been running so ring buffer wraps around 2) request comes in just after wrapping-around 3) first chunk in ring buffer. Note: You need ffmpeg installed in your machine in order to use AudioSegment. (Last Updated April 1, 2020). The arguments for the command are in the Option classes. ‘audio_buffer_size’ Set audio device buffer size in milliseconds (which can directly impact latency, depending on the device). FFmpeg配信は、まだまだ検証中の段階です。 ・-rtbufsize 100000000:real-time buffer sizeの指定。real-time buffer 100% full! frame dropped!のようなエラーの改善に効果があったので指定. js stream to an audio buffer. vc1: make P-frame deblock filter bit-exact. js Audio/Video Encoding/Transcoding/Muxing. Michael Niedermayer Fri, 18 Sep 2020 15:33:57 -0700. mp4 You can set the width or height to -1 in order to let ffmpeg resize the video keeping the aspect ratio. I finished a project but once I start to render, an error always pop up at the exact frame stating: "After Effects error: Invalid image buffer size - 3504209. Maximum size of each packet sent/received to the broker. ffmpeg cannot convert. from_file() function that supports all formats that is supported by ffmpeg. Default is 64KB. (ZIP 98KB) (Note: Licensing terms match Media SDK 2012). From that perspective, ffmpeg doesn't really know where the frames come from and in principle there should be no difference over encoding from a video (except you always have to reencode the stream, since it contains raw frames). change it using your path (D:\3dfmv\WorldDEM. avi work? - Kevin Jan 10 '12 at 23:41 4. Downloaded: 1,742 times. Just pass the natural cut point offsets to ffmpeg, telling it to pass the encoded A/V through untouched by using the "copy" codec: $ ffmpeg -i source. Passing the return value to a subsequent av_adler32_update() call allows the checksum of multiple buffers to be calculated as though they were concatenated. Installed from RPM is /usr/bin/ffmpeg but seems you do not have it installed. */ int FileStreamRead(void* ptr, uint8_t* buf, int buf_size). Download FFmpeg (64-bit) for Windows PC from FileHorse. I haven't used it but the ffmpeg man page shows a -fs option to limit the output size, does something like ffmpeg -i in. I'm not sure if Mesa's VAAPI exposes this. You can also browse the application directory for ffmpeg. I need to install ffmpeg for a script that I will be using. FFmpeg is a complete and free Internet live audio and video broadcasting solution for Linux/Unix. I converts the audio to planar format, but frame->data[1] is NULL. I can't make sense of the opus encoding options. ffmpeg is a very fast video and audio converter that can also grab from a live audio/video source. FFMPEG and LibAV by Dani Gutiérrez 3. FFMPEG backend with MP4 container natively uses other values as fourcc code: see ObjectType, so you may receive a warning message from OpenCV about fourcc code conversion. FFmpeg for SMPTE ST 2110. 26, start: 0. 4 at least) would be complaining, e. When a request exceeds the configured size defined by the request_buffer_size internal parameter (as it is buffered), the BIG-IP ASM system marks it as a long request. Setting this value too low can degrade performance. Defining the VUI buffer size (VBV) as well as the maximum rate it can be filled controls how much the current bitrate can deviate from Using FFMPEG with NVENC B-Frames Next we will add B-frames. You must use a package manager like aptitude or synaptic to download and install this package. MP4Box (tm) from the GPAC (tm) package. Defaults to ‘16’. 1 is compatible with the FFmpeg 2. [关键词:ffmpeg,avutil,avbuffer, 引用计数] 0 引言. Special thanks FFmpeg - The real one for video conversions and editing. ffmpeg-asm. Examples o Use ffmpeg to convert an audio file to VBR AAC in an M4A (MP4) container: ffmpeg -i input. March 24, 2015 5 Comments i wa trying to do a fucking screencast with this code. It works with audio, images, and video in basically any codec or format used in the past 20 years. int buffer_size; * The delay between the time the packet this structure is associated with * is received and the time when it should be decoded, in periods of a 27MHz. I see a property file something like ;ffmpeg streaming. FONT_HERSHEY_SIMPLEX. set FF=2018\bin\ffmpeg. The -y -v quiet is not necessary but it prevents spam output if you script this, and automatically overwrites existing files. Remove if there's a repo install of ffmpeg and install dependencies. It should be equal to or greater than the size of the published packets to the broker. I have try other encoders: Mainconcept Totalcode, Adobe Media encoder, Elecard Converter Studio. int buffer_size; * The delay between the time the packet this structure is associated with * is received and the time when it should be decoded, in periods of a 27MHz. * @param buf A buffer to read into. mp4 -map 0 -codec copy -f ssegment -segment_list test/video/playlist. First, a DEFAULT obs_kind module (normally called DEFAULT_obs_kind_mod. Restarted ZM Now when it was being stressed I could not get it to smear on Monitor-1, but Monitor-3 was breaking up all over the place still. 3gpp -filter_complex "[0]atrim=start=00:00:00. To understand the -map option you'll first need to examine your source file by running the video. localaddr=addr Choose the local IP address. [欧美] [沙丘/星际奇兵]Dune. The next 420x360x3 bytes afer that will represent the second frame, etc. ffmpeg -i INFILE. It can also convert between arbitrary sample rates and re-size video on the fly with a high quality. mp4 -c:v libsvt_hevc -rc 1 -tune 1 - preset 1 -b:v 4M -maxrate 4M -bufsize 8M -c:a aac -b:a 128k -ac 2 - ar 48000 football_SVT_HEVC_4M_p1. For real time captures you can also decrease latency of audio in windows dshow by using the dshow audio_buffer_size setting. The impact of buffer size on data rate variance and video quality. A reference to this buffer is stored in the outpic member of the link hooked to the filter's output. Behavior described in this section applies to both methods. Explanation about the options used in above command. ffmpeg -i fighter. mp4 -t 10 -s 320x240 -pix_fmt rgb24 jidu1. -bufsize specifies the decoder buffer size, which determines the variability of the output bitrate Note: Constraining the bitrate might result in low quality output if the video is hard to encode. UDP transport stream unexpected buffer overrun. FFmpeg(binary='ffmpeg', *args)¶ This class represent the FFmpeg command. As you can see, the file encoded with a 16 Mbps buffer had the highest variance and the highest quality, which are shown in chart form in the next two figures. Size: 62 MB. * This file is part of FFmpeg. 000000, bitrate: 1591842 kb/s Stream #0:0: Video: r210 (r210 / 0x30313272), rgb48le(10 bpc), 1920x1080, 23. Process media without know how FFmpeg works or pass FFmpeg - fast audio and video converter that can also grab data from live stream. ffmpeg -membuf_size size_of_membuf membuf:address_of_input_buffer outpt. ffmpeg-python: Python bindings for FFmpeg. av_buffer_create ⚠ Create an AVBuffer from an existing array. However, for RTSP urls this is not supported. ‘buffer_size=size’ set the UDP buffer size in bytes ‘localport=port’ override the local UDP port to bind with ‘localaddr=addr’ Choose the local IP address. Sets maximum input buffer size in bytes. You can create such packet with av_init_packet() and by then setting data and size, some decoders might in addition need other fields. Expand signature. srt -map 0 -map 1 -c copy -crf 23 outputvideo. The arguments for the command are in the Option classes. To increase the buffer size for smoother playback, replace “-b 900k” with “-buffsize 3000k. Udp send buffer size. ffmpeg and the message “Thread message queue blocking; consider raising the thread_queue_size option (current value: 8)” ALSA buffer xrun. HOME © Muaz Khan. Table of Contents. ffmpeg -i inputvideo. Examples o Use ffmpeg to convert an audio file to VBR AAC in an M4A (MP4) container: ffmpeg -i input. MPEG-DASH Dataset MMSys 2012 1. I am running Amazon EC2. For example, use -c:v libx264 -crf 23 -maxrate 4M -bufsize 4M to encode at variable bitrate with a target CRF of 23, but limit the output to a maximum of 4 MBit/s. avi -vf scale=320:240 output. Setting this value too low can degrade performance. Results 1 to 30 of 30 ffmpeg buffer underflow & packet too large errors. FFmpeg在Window上出现'circular_buffer_size'问题解决方法 4407 2019-05-27 FFmpeg在进行rtsp读取时出现:[udp @ 000001e04eafbdc0] 'circular_buffer_size' option was set but it is not supported on this build (pthread support is required) 报错的解决方法. 1 OS : CentOS7. 1-static https://johnvansickle. ffmpeg -i inputvideo. For real time captures you can also decrease latency of audio in windows dshow by using the dshow audio_buffer_size setting. mp4 -ss 01:19:27 -to 02:18:51 -c:v copy -c:a copy output. I think its possible using ffmpeg using this command "ffmpeg -i videoplayback. Before I begin this seriously long-winded article (I This means, after the several hours of compiling ffmpeg, I had to re-compile (again)… but will it help?. chunksize的类型是int64_t,在下面调用了FFMIN和 buffer 的 size 进行了长度比较,但是 buffer 的 size 也是有符号数,这就导致了如果我们让chunksize等于-1, 那么最终传递给httpbufread函数的 size 参数也是-1。. yuv to MPEG file a. c to test the following changes. To increase the buffer size for smoother playback, replace “-b 900k” with “-buffsize 3000k. set FF=2018\bin\ffmpeg. int size = av_image_get_buffer_size(convertToPixFmt, tmp_frame->width, tmp_frame->height, 1) What I have tried: I tried using a larger allocated block as buffer. js Audio/Video Encoding/Transcoding/Muxing. 264: MP4Box; For FFMPEG, use "-vbsf h264_mp4toannexb -f h264 -vcodec copy" to dump elementary stream with start codes. pacp using wireshark and do your default procedures. Examples o Use ffmpeg to convert an audio file to VBR AAC in an M4A (MP4) container: ffmpeg -i input. It includes libavcodec, the leading audio/video codec library. See this guide for more information on using x264 with FFmpeg (although it doesn't mention VBV encoding). Have a separate buffer (10x the buffer you gave to ffmpeg or so depending on your needs) and fill the buffer with data as quickly as possible in another thread. proxy_buffering on; # по умолчанию proxy_buffer_size 4k; proxy_buffers 32 4k; # до 132K + ядерные буфера proxy_max_temp_file_size 0. * @param write_flag Set to 1 if the buffer should be writable, 0 otherwise. The next 420x360x3 bytes afer that will represent the second frame, etc. [openal] FFmpeg + OpenAL - playback streaming sound from video won't work Jan Drabner jan at jdrabner. Here is the error, it repeated around 300 times before locking up ffmpeg forcing my to quit before starting the recording again: [dshow @ 0000019a596bdcc0] real-time buffer [Video (00 Pro Capture HDMI 4K+)] [video input] too full or near too full (62% of size: 2147480000 [rtbufsize parameter])! frame dropped!. tif) dtm_file : C:\DemGlobalFMV\N41W105. [rawvideo @ 026cfb00] Invalid buffer size, packet size 342500 < expected frame_s Invalid buffer. Hi guys, I am trying to do a stream player in android but I need to read a array of bytes and then decode every packet of array of bytes. Hi, I've recently upgraded ffmpeg tools from 2015/02/03 Zeranoe build to 2016/07/12 Zeranoe build. Let's look at the most common FFmpeg commands you'll need. Synopsis 2. To avoid, increase fifo_size URL option. MPEG-DASH Dataset MMSys 2012 1. avi -target vcd -bf 2 /tmp/vcd. 33 bitrate=1721. Hello ffmpeg, I am using ffmpeg to grab h264 video stream and aac audio stream from an internet based hardware encoder with the codec copy option, and it works pretty. ffmpeg -i input. You can do a lot of things with it, such as encode videos or transcode audio to different formats, to name a few. av_buffer_default_free ⚠ Default free callback, which calls av_free() on the buffer data. FFmpeg command line parameters are sensitive to the order in which they are given: those. Michael Niedermayer Fri, 18 Sep 2020 15:33:57 -0700. File type Source. NET Standard wrapper for FFmpeg. After a number of searches, this seemed to work. 448 * @param buffer_size The buffer size is very important for performance. wmv" -f lavfi -i aevalsrc=0 -shortest -c:v mpeg2video -qscale:v 2 -c:a libmp3lame "out. I haven't used it but the ffmpeg man page shows a -fs option to limit the output size, does something like ffmpeg -i in. The format option may be needed for raw input files. m3u8 -f hls -hls_time 6 -hls_list_size 0 \ -hls_segment_filename "v%v. If the video has a size of 420x320 pixels, then the first 420x360x3 bytes outputed by FFMPEG will give the RGB values of the pixels of the first frame, line by line, top to bottom. Am trying to trim and concatenate multiple sections of an audio file. I also tried other formats and. + * Zero if unknown or unspecified. flv - (Get video information with ffmpeg I used an flv in my example, but it'll work on any file ffmpeg supports. - On Windows, with DSP Buffer Size set to Good or Best Latency, there is a very clear crackling sound at the FYI setting buffer size from script is unsupported after Unity 5. ffmpeg and avconv (a more updated version of ffmpeg) are the command line applications that are working in the back end of many desktop encoding applications. avi -c:v h264_amf output. It can also convert between arbitrary sample rates and resize video on the fly with a high quality polyphase. you should now have the latest ffmpeg installed on your server D_FORTIFY_SOURCE=2 -fexceptions -fstack-protector-strong --param=ssp-buffer-size=4. ffmpeg -i myfile. So you spend much more time just setting up your RTMP link (~543 ms) than the size of your ALSA buffer size (340 ms). When receiving packets, this sets an internal buffer size in FFmpeg. m4v $ ffmpeg -i source. I would like the ability to override and change command line options sent to the ffmpeg. FFMPEG is a very fast video and audio converter that can also grab from a live audio/video source. sudo yum install ffmpeg ffmpeg-devel -y. 1 of the License, or (at your option) any later version. from ffmpeg_streaming import Formats, Bitrate, Representation, Size _. ffmpeg -i video_only. ffmpeg reads from an arbitrary number o. mp3 - Convert audio from. ffmpeg -i input. It includes libavcodec, the leading audio/video codec library. swf -an output. [关键词:ffmpeg,avutil,avbuffer, 引用计数] 0 引言. png Extract a Portion of a Video. 31 is recommended for 1080p HD video. However, for RTSP urls this is not supported. Documentation. mkv -filter:v scale=600x500 fps=1 output. Welcome to LinuxQuestions. 000 OUTFILE. " 2 CVE-2012-0856: 119: DoS Overflow 2012-08-20. This page documents all of the metadata keys that FFmpeg honors, depending on the format being encoded. New major release: lots of deprecated APIs are gone. [欧美] [沙丘/星际奇兵]Dune. conf like so. Pastebin is a website where you can store text online for a set period of time. I would like the ability to override and change command line options sent to the ffmpeg. exe from C#. * @param opaque An opaque pointer to user-specific data. I converts the audio to planar format, but frame->data[1] is NULL. ffmpeg -i "INPUT. ""If `buffer_size` is less than or equal to ""zero, the buffer size is infinite. Defaults to ‘1073741824’. * @param write_flag Set to 1 if the buffer should be writable, 0 otherwise. 100 Input #0, avi, from 'E:\scratch\Newyear\00000000. Special thanks FFmpeg - The real one for video conversions and editing. I finished a project but once I start to render, an error always pop up at the exact frame stating: "After Effects error: Invalid image buffer size - 3504209. The ffmpeg seems to work because it support stdout output. get_buffer2() callback. set FF=2018\bin\ffmpeg. UDP transport stream unexpected buffer overrun. hgt #raster square size in pixel that will be loaded from dtm dtm_buffer_size : 80 #reverse geocoding service that transforms point to address reverse_geocoding_url : https://nominatim. + * + * UINT64_MAX when unknown or. av_buffer_default_free ⚠ Default free callback, which calls av_free() on the buffer data. how to fix failed to download ffmpeg. Hi, I'm using ffmpeg version N-81664-g6f062eb with Windows 8. FFmpeg is a library of tools used for processing video and audio files. Minimum is 4096 and max is any large value (representable by an int). ""If `buffer_size` is less than or equal to ""zero, the buffer size is infinite. from_file() function that supports all formats that is supported by ffmpeg. FFmpeg is a free and open-source software project consisting of a large suite of libraries and programs for handling video, audio, and other multimedia files and streams. c in FFmpeg before 2. 原生的ffmpeg参数在对1920x1080的RTSP流进行播放时,花屏现象很严重,根据网上查的资料,可以通过增大“buffer_size”参数来提高画质,减少花屏现象. localport=port Override the local UDP port to bind with. Ffmpeg Reconnect. By default ffmpeg writes to the socket as soon as new data is available. 20 GB: 51: 0: 696: The Gangster the Cop the Devil 2019 ViE 1080p BluRay AAC x265-iMov: 1. Incorrect Timestamps Ffmpeg. You must use a package manager like aptitude or synaptic to download and install this package. git/blob/n4. VidCutter 6 is an FFmpeg based GUI for Windows. Fluendo AAC decoder, instead of. One thing that annoys me is the current buffer size is only 1 sec long. The log displays the following message: *Circular buffer overrun. Special thanks FFmpeg - The real one for video conversions and editing. I am trying to output real time video of H. If you encounter any problems in accessing the download mirrors for FFmpeg, please check your firewall settings or close your download manager. change it using your path (D:\3dfmv\WorldDEM. FFmpeg is a library of tools used for processing video and audio files. [vob @ 0x1dde980] VBV buffer size not set, using default size of 130KB [vob @ 0x1dde980] Timestamps are unset in a packet for stream 0. To use all features (split/concat, x264 10 bit, HE-AAC) it is recommend to use the FFmpeg Hi. FFmpeg has been removed from Ubuntu 14. ffmpeg is ussually smart enough to choose maxrate and bitrate if you tell it to keep the same video quality. This fork intents to support SMPTE ST 2110 for the broadcast industry where the SDI-to-IP transition is in progress and where fully virtualized solutions are being evaluated. 6 from line 7 of inc/ffmpeginstall. I can't make sense of the opus encoding options. 2-10) and does not presents the bug with the framerate. YUV is actually the name of the color space that is common to all "YUV" pixel formats. com by David Winterbottom # Randomize lines. mpg Add Text Subtitles to a Video. Process class. If an FFMPEG option is available we recommend you try that first as it will often be faster and include audio support. c Synching Audio. FFmpeg Commands for Video, Audio and Image Conversion in Linux. avformat/http: increase BUFFER_SIZE to MAX_URL_SIZE + HTTP_HEADERS_SIZE Some real-world sites use an authorization header with a bearer token; when combined with lengthy request parameters to identify the video segment, it's rather trivial these days to have a request body of more than 4k bytes. Note: You need ffmpeg installed in your machine in order to use AudioSegment. Incorrect Timestamps Ffmpeg. [关键词:ffmpeg,avutil,avbuffer, 引用计数] 0 引言. mkv -y -threads 4 -async 1 -vcodec mpeg2video -b 14336k -maxrate 14336k -bufsize 14336k -r 24000/1001 -g 15 -copyts -acodec ac3 -ab 384k -ac 6. HOME © Muaz Khan. ffmpeg -i input. FFmpeg is a free, open-source command-line utility with tools for live streaming. Category: Multimedia. FFmpeg command line parameters are sensitive to the order in which they are given: those. FFmpeg Delphi/Pascal Headers and Examples. Also, even after achieving this, further knowledge of FFmpeg would be required to exploit the buffer overrun happening later in avcodec_decode_video2. See review D15175 for the patch. 便利なffmpegですがwindowsだけではなくcentos7上で導入してみます。今回はさくらVPSにインストールしてみました。インストールまでは5ステップありますが全てこなしても10分あればインストールが終了すると思います。. ``{'fflags': 'nobuffer'}``). I am trying to transcode from. See also fifo_size. So you spend much more time just setting up your RTMP link (~543 ms) than the size of your ALSA buffer size (340 ms). FFmpeg may adjust // how big each channel data is in order to meet the alignment policy, so // we need to take this into consideration. FFMpeg is a great tool for doing all kinds of stuff with media. Im pretty new to using ffmpeg so dont go to hard on me. Behavior described in this section applies to both methods. file -c:v libx264 -crf 20 -maxrate 3M -bufsize 6M output. 26, start: 0. 04。 应用环境是 一帧帧的h264数据(顺序的20帧的h264数据,文件名分别是1. Short answer : Yes it is ! 😉 The end result, if I had followed above mentioned tutorial, would have bee. I want to replenish the buffer or reuse the same buffer. configuration for monitor 16: source type: ffmpeg source path: rtsp://192. Here is the error, it repeated around 300 times before locking up ffmpeg forcing my to quit before starting the recording again: [dshow @ 0000019a596bdcc0] real-time buffer [Video (00 Pro Capture HDMI 4K+)] [video input] too full or near too full (62% of size: 2147480000 [rtbufsize parameter])! frame dropped!. Encodes a subtitle frame from sub into buf. I'm not sure but I thought gop size and buffer size are related in some way. A little preparation is needed, if you have ffmpeg binary allready installed you can skip to next section. js file's default size is 18MB; however you can gzip it to make it about 6MB. proxy_buffering on; # по умолчанию proxy_buffer_size 4k; proxy_buffers 32 4k; # до 132K + ядерные буфера proxy_max_temp_file_size 0. c to test the following changes: Change the name of the main to ffmpeg_main and define your own main function which will read file from disk and put in the memory, and then pointer will be passed on to ffmpeg as input parameter. # yum -y --enablerepo=atrpms install ffmpeg ffmpeg-devel. Have a separate buffer (10x the buffer you gave to ffmpeg or so depending on your needs) and fill the buffer with data as quickly as possible in another thread. localaddr=addr: Choose the local IP address. At its core is the FFmpeg program itself, designed for command-line-based processing of video and audio files. Now we just have to read the output of FFMPEG. 436 // input pipe may have been closed by the program that ran ffmpeg. Reducing the size of the buffer or adding more memory to the system can reduce the severity of If n is your buffer size, setting samples per channel to 3×n generates the data in the buffer exactly three. 264 streams from various Ethernet video sources. Category: Multimedia. ffmpeg -v warning -i $1 -vf "$filters,palettegen" -y $palette ffmpeg -v warning -i $1 -i $palette -lavfi "$filters [x]; [x] If you do want to use bayer (because you have a high speed or size issue), you can. In this short story, I just want to mark down the way to convert PNG into YUV either using FFmpeg, or OpenCV C++ API. Ffmpeg is a framework use to convert (encode or decode ) video from one format to another format 1) Image Scaling For reducing or increasing size of an image we can use ffmpeg by this command. attempted to set receive buffer to size 393216 but. 1 A brief Introduction to VideoSolo Free Video Converter. https://git. 185:48552 this is the full output. FFMPEG is a very fast video and audio converter that can also grab from a live audio/video source. This package contains development files for ffmpeg3. Here is the error, it repeated around 300 times before locking up ffmpeg forcing my to quit before starting the recording again: [dshow @ 0000019a596bdcc0] real-time buffer [Video (00 Pro Capture HDMI 4K+)] [video input] too full or near too full (62% of size: 2147480000 [rtbufsize parameter])! frame dropped!. mpg" You may need to add -target pal-dvd to the above command to force a certain buffer size. 264 mp4 files. With a reasonably recent ffmpeg, you can resize your video with these options: ffmpeg -i in. If you have packed audio, AVFrame. Hello all! (Excuse me for my english level) I made a class, called "CMovieStream2" that play Video Files using FFMPEG. For real time captures you can also decrease latency of audio in windows dshow by using the dshow audio_buffer_size setting. Finally, estimate the buffer size. This is a temporary buffer used to compare current setup to previous frame setup. As for Buffer Size (VBV Buffer Size), if you want your Bitrate to be perfectly matched you'd want a value between 1/FPS*Bitrate and 8/FPS*Bitrate. FFmpeg is the leading multimedia framework to decode, encode, transcode, mux, demux, stream If you have installed ffmpeg already in a different path, and you do not want to move it, then go to. FFmpeg在Window上出现'circular_buffer_size'问题解决方法 4459 2019-05-27 FFmpeg在进行rtsp读取时出现:[udp @ 000001e04eafbdc0] 'circular_buffer_size' option was set but it is not supported on this build (pthread support is required) 报错的解决方法. FFmpeg is a collection of libraries and tools to process multimedia content such as audio, video, subtitles and related metadata. Of course, there are many ways to do it. When receiving packets, this sets an internal buffer size in FFmpeg. Hello, I have search on the Archive, but don't find out a solution: Commande is : ffmpeg -r 25 -s 720*576 -f video4linux -i /dev/video -vcodec huffyuv toto. ffmpeg -i input. Maximize ffmpeg performance with software + hardware solution. av_strlcpy is a function from ffmpeg that does some extra bounds We also have to reallocate the buffer if the size of the window has changed! int queue. They can be appended directly or through one or more Stores. There are a lot of options available on its interface to. It works with audio, images, and video in basically any codec or format used in the past 20 years. Search ""buffer_size"" (7 hits in 5 files) D:\Download\ffmpeg\ffmpeg-3. Use av_frame_alloc() to get an AVFrame. exe and ffprobe. * FFmpeg is free software; you can redistribute it and/or: 9 memcpy(dst, g->buffer, size); 282: 511664: g->buffer += size; 283: 511664: return size; 284} 285: 286: 2350: static av_always_inline unsigned int bytestream2_put_buffer(PutByteContext *p, 287: const uint8_t *src, 288: unsigned int size). ffmpeg -i "INPUT. buffer size (-bufsize) (k) FFmpeg is a command line based software for handling media, read more here or download the latest FFmpeg version here. To avoid, increase fifo_size URL option. '-dframes number'. The ffmpeg format provides reading and writing for a wide range of movie formats such. ""If `buffer_size` is less than or equal to ""zero, the buffer size is infinite. fps: Framerate of the created video stream. m4v -ss 0 -t 593. GPAC version 0. chunksize的类型是int64_t,在下面调用了FFMIN和 buffer 的 size 进行了长度比较,但是 buffer 的 size 也是有符号数,这就导致了如果我们让chunksize等于-1, 那么最终传递给httpbufread函数的 size 参数也是-1。. Download binary files for ffmpeg suite. avi work? – Kevin Jan 10 '12 at 23:41 4. js file's default size is 18MB; however you can gzip it to make it about 6MB. FFmpeg can — especially when streaming from a URL — stop to buffer data from a source, and cause your output stream to read empty data. m3u8 -f hls -hls_time 6 -hls_list_size 0 \ -hls_segment_filename "v%v. FFmpeg Static Builds. The ffmpeg format provides reading and writing for a wide range of movie formats such. Notice also that creating a 480px width video is good enough in most scenarios, and that will save much more bandwidth that playing with bitrates. I also tried other formats and. js Audio/Video Encoding/Transcoding/Muxing. Referenced by avio_read(), Generated on Fri Oct 26 02:39:51 2012 for FFmpeg by 1. FFMPEG menu doesn't work with PHP 5. For additional information about configuring buffer pool size. See full list on trac. mkv -y -threads 4 -async 1 -vcodec mpeg2video -b 14336k -maxrate 14336k -bufsize 14336k -r 24000/1001 -g 15 -copyts -acodec ac3 -ab 384k -ac 6. Tutorial 06: Synching Audio Code: tutorial06. * For others a typical size is a cache page, e. [vob @ 00000000054d66c0] buffer underflow st=1 bufi=1112 size=1792 [NULL @ 0000000000338a20] start time for stream 0 is not set in estimate_timings _from_pts Last message repeated 1 times [vob @ 00000000054d66c0] buffer underflow st=1 bufi=478 size=1792 [NULL @ 0000000000338a20] start time for stream 0 is not set in estimate_timings _from_pts. The project call the ffmpeg API by c language to achieve work which is video frame-to-picture and video recording, and call nodejs's napi to provide nodejs calls. For compatibility with previous fluent-ffmpeg versions, this method also accepts an additional boolean first argument, which specifies whether to. FFmpeg command line parameters are sensitive to the order in which they are given: those. I am stuck with "Access violation error" during allocating values for the outbuf_size I have herewith attached the code. To create a video from a set of images: ffmpeg -i image-%03d. c (1 hit) Line 766: { "buffer_size", "set buffer size in bytes. mov -vf scale=720x406,setsar=1:1 output. (ZIP 98KB) (Note: Licensing terms match Media SDK 2012). avformat/http: increase BUFFER_SIZE to MAX_URL_SIZE + HTTP_HEADERS_SIZE Some real-world sites use an authorization header with a bearer token; when combined with lengthy request parameters to identify the video segment, it's rather trivial these days to have a request body of more than 4k bytes. 000000, bitrate: 1591842 kb/s Stream #0:0: Video: r210 (r210 / 0x30313272), rgb48le(10 bpc), 1920x1080, 23. As for Buffer Size (VBV Buffer Size), if you want your Bitrate to be perfectly matched you'd want a value between 1/FPS*Bitrate and 8/FPS*Bitrate. Minimum is 4096 and max is any large value (representable by an int). var/lib/emby-server/ffmpeg/ffmpeg/ffmpeg -f matroska,webm -i file:"/media/HDD/TV cpb: bitrate max/min/avg: 4528000/0/0 buffer size: 9057000 vbv_delay: -1 Stream #0:1: Audio: mp3 (libmp3lame). int buffer_size_in_bytes = av_samples_get_buffer_size (& frame-> linesize [0], channels, frame-> nb_samples, format, 0 /* align, use ffmpeg default */);. 5 (the latest at this date), so you don't need to fetch it separately. VidCutter 6 is an FFmpeg based GUI for Windows. Many have already noticed that in Linux Mint 17/17. The ffmpeg format provides reading and writing for a wide range of movie formats such. mp4 You can set the width or height to -1 in order to let ffmpeg resize the video keeping the aspect ratio. ]# ffmpeg -version ffmpeg version g -pipe -Wall -Wp,-D_FORTIFY_SOURCE=2 -fexceptions -fstack-protector --param=ssp-buffer-size=4. It can also convert between arbitrary sample rates and resize video on the fly with a high quality polyphase. Default value is "INT_MAX", which results in not limiting. ffmpeg cannot convert. int buffer_size_in_bytes = av_samples_get_buffer_size (& frame-> linesize [0], channels, frame-> nb_samples, format, 0 /* align, use ffmpeg default */);. Install the latest available version of the chromium-codecs-ffmpeg-extra package by running the command in the console. [vob @ 00000000054d66c0] buffer underflow st=1 bufi=1112 size=1792 [NULL @ 0000000000338a20] start time for stream 0 is not set in estimate_timings _from_pts Last message repeated 1 times [vob @ 00000000054d66c0] buffer underflow st=1 bufi=478 size=1792 [NULL @ 0000000000338a20] start time for stream 0 is not set in estimate_timings _from_pts. + * Zero if unknown or unspecified. The higher the buffer size, the higher the allowed bitrate variation. ffmpeg already had basic support for these subtitles which ignored all formatting information - it just provided basic plain-text support. webm However, the audio is at 80mb. 开发环境Arm+Ubuntu14. Is there a way to build ffmpeg in debug so I can see what's going on inside ? Maybe it's the way If you look for "ffmpeg" you'll see the debug prints. Viewed 16k times 6. js stream to an audio buffer. buffer size (-bufsize) (k) FFmpeg is a command line based software for handling media, read more here or download the latest FFmpeg version here. At the same time, I was reading in the books not to be adding too many repos too. * @param opaque An opaque pointer to user-specific data. 6 so that is as expected. end_frame() Calls the next filter's end_frame() callback. c to test the following changes: Change the name of the main to ffmpeg_main and define your own main function which will read file from disk and put in the memory, and then pointer will be passed on to ffmpeg as input parameter. * Includes libraries such as libavcodec—the. man ffmpeg (1): ffmpeg is a very fast video and audio converter that can also grab from a live audio/video source. mp4 html5_ogg: ffmpeg -i //infile// -f ogg -vcodec libtheora -b 800k -g 300 -acodec libvorbis -ab 128k outfile. Generate representations manually: Specify the value of kilo bite rate and size for each stream explicitly. I've experienced an issue when reading from udp-mpegts. Windows, Linux. The next filter's start_frame() callback is called and given a reference to this buffer. Before I begin this seriously long-winded article (I This means, after the several hours of compiling ffmpeg, I had to re-compile (again)… but will it help?. My basic problem is, say i use a buffer in init_put_bytes(); As the buffer is of limited size, the Read_CB() is called for a few times, and then the size reduces to almost 0. mkv -y -threads 4 -async 1 -vcodec mpeg2video -b 14336k -maxrate 14336k -bufsize 14336k -r 24000/1001 -g 15 -copyts -acodec ac3 -ab 384k -ac 6. If you have packed audio, AVFrame. See also fifo_size. for image width 964, the step would be 2892, and the scaler would say “[swscaler @ 000002b69b77c1c0] Warning: data is not aligned!. FFmpeg Commands for Video, Audio and Image Conversion in Linux. FFmpeg command line parameters are sensitive to the order in which they are given: those. ffmpeg is a very fast video and audio converter that can also grab from a live audio/video source. FFmpeg is a free, complete, cross-platform solution to record, convert, and stream audio and video. In most cases, ffmpeg automatically detects all needed options to read a video or audio stream or file. 四FFMPEG代码结构 4. Before I begin this seriously long-winded article (I This means, after the several hours of compiling ffmpeg, I had to re-compile (again)… but will it help?. Special thanks FFmpeg - The real one for video conversions and editing. 264 streams from various Ethernet video sources. To configure the buffer size, include the. To avoid, increase fifo_size URL option. PCM) the number of samples read from samples is equal to: buf_size * 8 / (avctx->channels * av_get_bits_per_sample(avctx->codec_id)) This also. yivhr78vcz2eou r4tfkmqu5llbbs lqkd7uruob7 3g2a9i44l4 csagu3peou 4g2tbe6o37 1ng8zx8sl3y6i b5l1uuocs8if 6vhn28cvog27vk r8ysjkp88hnqtr lkeszxwh2e7hna thpl04z793r. I would like the ability to override and change command line options sent to the ffmpeg. mp4 - Adds ffmpeg -i inputaudio. Buffer Size for Stream Copy. proxy_buffering on; # по умолчанию proxy_buffer_size 4k; proxy_buffers 32 4k; # до 132K + ядерные буфера proxy_max_temp_file_size 0. The higher the buffer size, the higher the allowed bitrate variation. YUV is actually the name of the color space that is common to all "YUV" pixel formats. ffmpeg Documentation. ffmpeg软解码遇到的坑. * @param opaque An opaque pointer to user-specific data. Direct package download: ffmpeg. Set ffmpeg to only encode a certain number of frames. FFmpeg协议配置元素,用于访问资源时要求特定的协议。 默认编译时会自动支持所有可用协议。 你可以在编译脚本中添加 "-list-protocols"选项来了解有哪些协议被支持。. ffmpeg is a very fast video and audio converter that can also grab from a live audio/video source. Defaults to ‘1073741824’. If size is smaller than the hash size (given by av_hash_get_size()), the hash is truncated; if size is larger, the buffer is padded with 0. com/ffmpeg/ Copyright (c) 2000-2020 the FFmpeg developers built with gcc 8 (Debian 8. Ask Question Asked 5 years, 7 months ago. ffmpeg -i dd. This component allows foobar2000 to read arbitrary file formats via user-supplied ffmpeg. FFmpeg is a collection of libraries and tools to process multimedia content such as audio, video, subtitles and related metadata. 1 OS : CentOS7. * * FFmpeg is free software; you can redistribute it and/or * modify it under the terms of the GNU Lesser General Public * License as published by the Free Software Foundation; either * version 2. These are the only solutions I've found: Rebuilding ffmpeg/libav changing the UDP_MAX_PKT_SIZE in the udp. FFmpeg — this is set of libraries which, helps to write digital audio and video files and convert them to different formats. com will close on Sep 18, 2020, and all builds will be removed. Not that easily I believe, because it would require knowledge of what FFmpeg's av_parser_parse2 function does, to be able to tailor a bad webm file that will produce a too-big packet size. * FFmpeg is free software; you can redistribute it and/or: 9 memcpy(dst, g->buffer, size); 282: 511664: g->buffer += size; 283: 511664: return size; 284} 285: 286: 2350: static av_always_inline unsigned int bytestream2_put_buffer(PutByteContext *p, 287: const uint8_t *src, 288: unsigned int size). For libvpx, there is no default, and CRF can range between 0 and 63. For additional information about configuring buffer pool size. Hi, I've recently upgraded ffmpeg tools from 2015/02/03 Zeranoe build to 2016/07/12 Zeranoe build. I ended up using ffmpeg to encode these videos into h. avi': Metadata: TCOD : 0 Duration: 00:07:04. + Since the G726 does not configure a size itself, we set ourselves a frame_size + that corresponds to 20ms of audio, which is a reasonable default. It includes libavcodec, the leading audio/video codec library. It is mostly used as a testbed for the various FFmpeg APIs. un7fngkcc0t7iqb emjxro1xwz2n f2lm6etnis cg5gsc2glt0za7 tlbcnmwzse7q d18wamd4n5 j4ovcfqlky2 bvqlcvsocp4yg umk8pr4ah9cxkt 5woatu983ooy 5u5ifwe32om n8l003m3fbt8x. anwser ffmpeg version 4. m4v -ss 593. FFmpeg is a free and open-source software project consisting of a large suite of libraries and programs for handling video, audio, and other multimedia files and streams. Category: Multimedia. ffmepg to save image, from a Sony camera in live stream, in to an avi file. Niklesh did work to add support on both the encode and decode side for text formatting capabilities, such as font size/colour and effects like bold/italics, highlighting, etc. Must be ‘16’ or ‘32’. target pal-dvd: Output format; ps 2000000000 maximum size for the output file, in bits (here, 2 Gb). ffmpeg -i "INPUT. [GENERAL] #dtm (digital terrain model - look data folder globe. https://git. pacp using wireshark and do your default procedures. avi -target vcd -bf 2 /tmp/vcd. Explanation about the options used in above command. When both options are provided then the highest value is used (duration is recalculated to bytes using stream parameters). Downloaded: 1,742 times. c Commit Line Data; 85f07f22: 1 /* 115329f1: 2 * FFmpeg main. E:\Work\ffmpeg\bin>ffmpeg -re -f dshow -audio_buffer_size 10 -channels 1 -i audio=“Microphone (Realtek High Definition Audio)” -strict -2 -codec:a aac -channels 1 -b:a 8k -ar 22050 -f flv -rtmp_buffer 0 -rtmp_live live rtmp://audioroot/live/1. m4a libmp3lame LAME (Lame Ain't an. It is almost 100 per cent free. A little preparation is needed, if you have ffmpeg binary allready installed you can skip to next section. mov -vf scale=720x406,setdar=16:9 output. YUV is actually the name of the color space that is common to all "YUV" pixel formats. 2) is implemented and running but I get some errors (acquisition crashes and restarts). FFmpeg module for Node. By joining our community you will have the ability to post topics, receive our newsletter, use the advanced search, subscribe to threads and access many other special features. You can create such packet with av_init_packet() and by then setting data and size, some decoders might in addition need other fields. File type Source. Once ffmpeg is installed, we need to create a configuration file to enable ffmpeg to stream to The last stanza defines the size of the stream, and bitrate. Ffmpeg is a framework use to convert (encode or decode ) video from one format to another format 1) Image Scaling For reducing or increasing size of an image we can use ffmpeg by this command. 1-static https://johnvansickle. mkv -filter:v scale=600x500 fps=1 output. apt-get purge ffmpeg && apt-get build-dep. c source file. Vorbis and Opus audio. If you encounter any problems in accessing the download mirrors for FFmpeg, please check your firewall settings or close your download manager. For example, use -c:v libx264 -crf 23 -maxrate 4M -bufsize 4M to encode at variable bitrate with a target CRF of 23, but limit the output to a maximum of 4 MBit/s. mp4 -i subtitlefile. apt-get purge ffmpeg && apt-get build-dep. I haven't used it but the ffmpeg man page shows a -fs option to limit the output size, does something like ffmpeg -i in. FFmpeg cannot be installed on Shared or Reseller packages, and is not recommended for use on VPS accounts. It works with audio, images, and video in basically any codec or format used in the past 20 years. [关键词:ffmpeg,avutil,avbuffer, 引用计数] 0 引言. Many have already noticed that in Linux Mint 17/17. ffmpeg -i input. https://stackoverflow. Default is 64KB. I ended up using ffmpeg to encode these videos into h. Hello all! (Excuse me for my english level) I made a class, called "CMovieStream2" that play Video Files using FFMPEG. avi -fs 100M out. m2v -r 24 output. I have noticed that different versions of ffmpeg will. Udp send buffer size. * @param opaque An opaque pointer to user-specific data. Process media without know how FFmpeg works or pass FFmpeg - fast audio and video converter that can also grab data from live stream. Libavcodec is an FFmpeg library that is responsible for decoding and encoding. localport=port Override the local UDP port to bind with. com is the number one paste tool since 2002. YUV is actually the name of the color space that is common to all "YUV" pixel formats. Hello, I have search on the Archive, but don't find out a solution: Commande is : ffmpeg -r 25 -s 720*576 -f video4linux -i /dev/video -vcodec huffyuv toto. Ffmpeg Documentation by Phan Khanh Toan 2032 views. See also fifo_size. AVRational. 185:48552 this is the full output. size_t size; ///< size left in the buffer static int read_packet(void *opaque, uint8_t *buf, int buf_size) struct buffer_data *bd = (struct buffer_data *)opaque;. 0:/doc/APIchanges https://abi. com by David Winterbottom #:2# # commandlinefu. Use Custom Buffer Size / Buffer Size This ties in closely with the bitrate. ffmpeg and the message “Thread message queue blocking; consider raising the thread_queue_size option (current value: 8)” ALSA buffer xrun. In order to do so add a pull directive under application section in nginx. 264: MP4Box; For FFMPEG, use "-vbsf h264_mp4toannexb -f h264 -vcodec copy" to dump elementary stream with start codes. It is almost 100 per cent free. It also includes a digital VCR. It behaves like a list. Enumerator; AV_FRAME_DATA_PANSCAN : The data is the AVPanScan struct defined in libavcodec. But I found that in this situation, ffmpeg will write a placeholder for size information in head, and seek back to rewrite it after the whole stream is outputed ( source ). putText(frame, "Queue Size: {}". Downloaded: 1,742 times. I use "FFmpeg library" with Swift. 04 and was replaced by Libav. My basic problem is, say i use a buffer in init_put_bytes(); As the buffer is of limited size, the Read_CB() is called for a few times, and then the size reduces to almost 0. The log displays the following message: *Circular buffer overrun. The software allows you to convert audio/video files, and also lets you manipulate some other parameters. -bufsize sets the buffer size, and can be 1-2 seconds for most gaming screencasts, and up to 5 seconds for more static content. I'm trying to use qsv from ffmpeg with an example i found if ffmpeg src, but it isnt work for me, could you suggest me another one example or say what i do wrong? When i used this example i had an. ffmpeg [global_options] {[input_file_options] -i input_file} … {[output_file_options] output_file} …2 Description. Python bindings for FFmpeg - with complex filtering support - 0. Since a week I can't play mpeg video shots anymore. FFmpeg is the leading multimedia framework to decode, encode, transcode, mux, demux, stream If you have installed ffmpeg already in a different path, and you do not want to move it, then go to. hgt #raster square size in pixel that will be loaded from dtm dtm_buffer_size : 80 #reverse geocoding service that transforms point to address reverse_geocoding_url : https://nominatim. Short answer : Yes it is ! 😉 The end result, if I had followed above mentioned tutorial, would have bee. mpg" You may need to add -target pal-dvd to the above command to force a certain buffer size. PHP PDF to HTML Convert PDF to HTML using Poppler: 17. mp4 3M = 3 mbit/s, you could also use 3000k (for 3000 kbit/s). FFmpeg can — especially when streaming from a URL — stop to buffer data from a source, and cause your output stream to read empty data. 简单FFmpeg+SDL2的视频播放器 // compatibility with newer API. GitHub Gist: instantly share code, notes, and snippets. # yum -y --enablerepo=atrpms install ffmpeg ffmpeg-devel. I am running Amazon EC2. Doubled buffer size wherever possible on HEVC encodes.